imdb
rating

 
Doctor Strange

Doctor Strange (2016)

Fantasy, Action, Adventure, Science Fiction

Full description
quality   hd fullhd telesync x264

Doctor Strange 2016 New HD-TS.AAC.X264 [Isohunt.to] Verified

Size 1.005 GB   85 seeders     Added 2016-11-25 08:40:43

7.9
A neurosurgeon with a destroyed career sets out to repair his hands only to find himself protecting the world from inter-dimensional threats.
Year: 2016
Genres: Action,Adventure,Fantasy
Director: Scott Derrickson
MPA Rating: PG-13
Runtime: 115 min
Rating: 8.0

[img]http://image.tmdb.org/t/p/w640/1udSwERoYpIN7Fxmlz1XHWbdqaO.jpg[/img]

Output #0, mp4, to 'doctor.strange.2016.new.hdts.acc.x264.mvgee.mp4':
  Metadata:
    major_brand     : isom
    minor_version   : 512
    compatible_brands: isomiso2avc1mp41
    encoder         : MvGee.Lavf57.58.100
    Stream #0:0: Video: h264 (libx264) ([33][0][0][0] / 0x0021), yuv420p, 1280x720 [SAR 1:1 DAR 16:9], q=-1--1, 25 fps, 12800 tbn, 25 tbc (default)
    Metadata:
      encoder         : Lavc57.66.106 libx264
    Side data:
      cpb: bitrate max/min/avg: 0/0/0 buffer size: 0 vbv_delay: -1
    Stream #0:1(und): Audio: aac (LC) ([64][0][0][0] / 0x0040), 48000 Hz, stereo, fltp, 128 kb/s (default)
    Metadata:
      handler_name    : SoundHandler
      encoder         : MvGee.Lavc57.66.106 aac
doctor.strange.2016.new.hdts.acc.x264.mvgee.mp4 1.005 GB
Gathering some info...

Register and log in Isohunt and see no captcha anymore!

4000 symbols left
Hash 1da809468c20e881be76dded77c7fb8fab96f973

Related torrents for "Doctor Strange 2016 New HD-TS.AAC.X264 [Isohunt.to]"

Torrent search:

telesync x264 hd 2016