imdb
rating

9.0
The Grand Tour

The Grand Tour (2016)

Comedy, Documentary

Full description

The.Grand.Tour.S01E02.WEBRip.FUM[mvgee] [Isohunt.to] Verified

Size 362.926 MB   17 seeders     Added 2016-11-26 23:03:10

10
The.Grand.Tour.S01E02.WEBRip.FUM[mvgee]

Follow Jeremy, Richard, and James, as they embark on an adventure across the globe. Driving new and exciting automobiles from manufacturers all over the world. 

Genres: Comedy | Talk-Show 
Country: USA 
Language: English 
Runtime: 71 min 
Stars: Jeremy Clarkson, Richard Hammond, James May 


Metadata: 
major_brand : isom 
minor_version : 1 
compatible_brands: isomavc1 
encoder : Lavf57.58.100 
Stream #0:0: Video: h264 (libx264) ([33][0][0][0] / 0x0021), yuv420p, 720x404 [SAR 1:1 DAR 180:101], q=-1--1, 23.98 fps, 24k tbn, 23.98 tbc (defau
lt) 
Metadata: 
encoder : Lavc57.66.106 libx264 
Side data: 
cpb: bitrate max/min/avg: 0/0/0 buffer size: 0 vbv_delay: -1 
Stream #0:1(und): Audio: aac (LC) ([64][0][0][0] / 0x0040), 48000 Hz, stereo, fltp, 128 kb/s (default) 
Metadata: 
creation_time : 2016-11-26T05:07:26.000000Z 
encoder : Lavc57.66.106 aac
The.Grand.Tour.S01E02.WEBRip.FUM[mvgee].mp4 362.926 MB
Gathering some info...

Register and log in Isohunt and see no captcha anymore!

4000 symbols left
Hash 1804125db120a0e20c82c96a8fc199070bd43bcf

Related torrents for "The.Grand.Tour.S01E02.WEBRip.FUM[mvgee] [Isohunt.to]"

Torrent search:

season 01 episode 02 web-rip