imdb
rating

7.6
Top Chef

Top Chef (2006)

Reality

Full description

Top Chef S13E15 720p WEB H264-HatchetGear[rartv]

Size 1.365 GB   2 seeders     Added 2016-03-23 02:06:03

http://rarbg.to
Top.Chef.S13E15.720p.WEB.H264-HatchetGear
Screens :
Mediainfo :
Video
ID : 2
Format : AVC
Format/Info : Advanced Video Codec
Format profile : High@L3.1
Format settings, CABAC : No
Format settings, ReFrames : 2 frames
Codec ID : V_MPEG4/ISO/AVC
Duration : 43mn 1s
Bit rate : 4 071 Kbps
Width : 1 280 pixels
Height : 720 pixels
Display aspect ratio : 16:9
Frame rate mode : Constant
Frame rate : 23.976 (24000/1001) fps
Color space : YUV
Chroma subsampling : 4:2:0
Bit depth : 8 bits
Scan type : Progressive
Bits/(Pixel*Frame) : 0.184
Stream size : 1.22 GiB (96%)
Language : English
Default : Yes
Forced : No
Color range : Limited
Color primaries : BT.709
Transfer characteristics : BT.709
Matrix coefficients : BT.709
Audio
ID : 1
Format : AAC
Format/Info : Advanced Audio Codec
Format profile : LC
Codec ID : A_AAC
Duration : 43mn 2s
Bit rate : 157 Kbps
Channel(s) : 2 channels
Channel positions : Front: L R
Sampling rate : 48.0 KHz
Frame rate : 46.875 fps (1024 spf)
Compression mode : Lossy
Stream size : 48.3 MiB (4%)
Language : English
Default : Yes
Forced : No
Top.Chef.S13E15.720p.WEB.H264-HatchetGear[rarbg]/RARBG.com.txt 34 B
Top.Chef.S13E15.720p.WEB.H264-HatchetGear[rarbg]/top.chef.s13e15.720p.web.h264-hatchetgear.mkv 1.365 GB
Top.Chef.S13E15.720p.WEB.H264-HatchetGear[rarbg]/top.chef.s13e15.720p.web.h264-hatchetgear.nfo 8.392 KB
Gathering some info...

Register and log in Isohunt and see no captcha anymore!

4000 symbols left
Hash 527b5874bb9bc6ae45f66e17f988ee7dfd4c5bd3

Related torrents for "Top Chef S13E15 720p WEB H264-HatchetGear[rartv]"